Details for this torrent 

Shuddh Desi Romance 2013 Hindi Movies HDDVDScrRip XviD New Sourc
Type:
Video > Movies
Files:
2
Size:
702.53 MiB (736658356 Bytes)
Uploaded:
2013-09-11 12:54:39 GMT
By:
basicssom Trusted
Seeders:
2
Leechers:
1
Comments
0  

Info Hash:
 
1E7C2226A8FBB0E2AD603B25F7C278EC9F001ECB




(Problems with magnets links are fixed by upgrading your torrent client!)
 http://users2.jabry.com/myimghost/logo.jpg

Shuddh Desi Romance 2013 Hindi Movies HDDVDScrRip XviD New Source +Sample ~ ☻rDX☻

Please check SCREEN SHOTS first :
 
http://myimghosting.serveftp.com/13/ShuddhDesiRomanceDS.html
 
http://myimghost.cwahi.net/ShuddhDesiRomanceDS.html

All rDX torrents are Seeding From the 1Gbps Seedbox 24X7
 
http://users2.jabry.com/myimghost/ShuddhDesiRomance/ShuddhDesiRomance.jpg
 
http://users2.jabry.com/myimghost/ShuddhDesiRomance/ShuddhDesiRomance1.jpg
 
http://users2.jabry.com/myimghost/ShuddhDesiRomance/ShuddhDesiRomance2.jpg

Format                                   : AVI
Format/Info                              : Audio Video Interleave
File size                                : 691 MiB
Duration                                 : 2h 8mn
Overall bit rate                         : 754 Kbps
Writing library                          : MPlayer

Video
ID                                       : 0
Format                                   : MPEG-4 Visual
Format profile                           : Advanced Simple@L5
Format settings, BVOP                    : 2
Format settings, QPel                    : No
Format settings, GMC                     : No warppoints
Format settings, Matrix                  : Default (H.263)
Codec ID                                 : XVID
Codec ID/Hint                            : XviD
Duration                                 : 2h 8mn
Bit rate                                 : 621 Kbps
Width                                    : 640 pixels
Height                                   : 272 pixels
Display aspect ratio                     : 2.35:1
Frame rate                               : 23.976 fps
Color space                              : YUV
Chroma subsampling                       : 4:2:0
Bit depth                                : 8 bits
Scan type                                : Progressive
Compression mode                         : Lossy
Bits/(Pixel*Frame)                       : 0.149
Stream size                              : 569 MiB (82%)
Writing library                          : XviD 1.2.1 (UTC 2008-12-04)

Audio
ID                                       : 1
Format                                   : AC-3
Format/Info                              : Audio Coding 3
Mode extension                           : CM (complete main)
Format settings, Endianness              : Big
Codec ID                                 : 2000
Duration                                 : 2h 8mn
Bit rate mode                            : Constant
Bit rate                                 : 128 Kbps
Channel(s)                               : 2 channels
Channel positions                        : Front: L R
Sampling rate                            : 48.0 KHz
Bit depth                                : 16 bits
Compression mode                         : Lossy
Stream size                              : 117 MiB (17%)
Alignment                                : Split accross interleaves
Interleave, duration                     : 500 ms (11.99 video frames)
Interleave, preload duration             : 500 ms		

dmca link